<?xml version="1.0" standalone="no"?>
<!DOCTYPE svg PUBLIC "-//W3C//DTD SVG 1.1//EN" "http://www.w3.org/Graphics/SVG/1.1/DTD/svg11.dtd" >
<svg>
<metadata>
Created by FontForge 20090914 at Fri Feb 24 00:34:51 2012
 By root
http://www.fatorcaos.com.br
</metadata>
<defs>
<font id="PerfectDOSVGA437" horiz-adv-x="2304" >
  <font-face 
    font-family="Perfect DOS VGA 437"
    font-weight="400"
    font-stretch="normal"
    units-per-em="4096"
    panose-1="2 0 0 9 0 0 0 0 0 0"
    ascent="3072"
    descent="-1024"
    x-height="1792"
    cap-height="2560"
    bbox="0 -1024 2304 3072"
    underline-thickness="256"
    underline-position="0"
    unicode-range="U+0001-U+2122"
  />
<missing-glyph 
 />
    <glyph glyph-name=".notdef" 
 />
    <glyph glyph-name="uni0002" 
d="M1536 1792v256h-256v-256h256zM768 1792v256h-256v-256h256zM1280 768v256h256v256h-1024v-256h256v-256h512zM0 2304h256v256h1536v-256h256v-2048h-256v-256h-1536v256h-256v2048z" />
    <glyph glyph-name="uni0003" 
d="M512 512h-256v256h-256v1024h256v256h512v-256h256v256h512v-256h256v-1024h-256v-256h-256v-256h-256v-256h-256v256h-256v256z" />
    <glyph glyph-name="uni0004" 
d="M1536 768h-256v-256h-256v-256h-256v256h-256v256h-256v256h-256v256h256v256h256v256h256v256h256v-256h256v-256h256v-256h256v-256h-256v-256z" />
    <glyph glyph-name="uni0005" 
d="M1280 256h256v-256h-1024v256h256v510l2 2h510v-512zM768 2304h512v-256h256v-512h512v-768h-768v768h-512v-768h-768v768h512v512h256v256z" />
    <glyph glyph-name="uni0006" 
d="M0 1536h256v256h256v256h256v256h512v-256h256v-256h256v-256h256v-512h-256v-256h-512v-512h256v-256h-1024v256h256v512h-512v256h-256v512z" />
    <glyph glyph-name="uni0007" 
d="M512 1280h256v256h512v-256h256v-512h-256v-256h-512v256h-256v512z" />
    <glyph glyph-name="uni0008" 
d="M1280 512v256h256v512h-256v256h-512v-256h-256v-512h256v-256h512zM0 3072h2048v-4096h-2048v4096z" />
    <glyph glyph-name="uni0009" unicode="&#x9;" 
d="M768 512h512v256h256v512h-256v256h-512v-256h-256v-512h256v-256zM256 1536h256v256h1024v-256h256v-1024h-256v-256h-1024v256h-256v1024z" />
    <glyph glyph-name="uni000A" unicode="&#xa;" 
d="M1280 512h-512v256h-256v512h256v256h512v-256h256v-512h-256v-256zM1536 256v256h256v1024h-256v256h-1024v-256h-256v-1024h256v-256h1024zM0 3072h2048v-4096h-2048v4096z" />
    <glyph glyph-name="uni000B" 
d="M1024 1280h-512v-1024h512v1024zM1536 2048h-256v-256h-256v-256h256v-256h256v-1024h-256v-256h-1024v256h-256v1024h256v256h256v256h256v256h256v256h-256v256h1024v-1024h-256v512z" />
    <glyph glyph-name="uni000C" 
d="M1024 2304h-512v-1024h512v1024zM0 768h512v256h-256v256h-256v1024h256v256h1024v-256h256v-1024h-256v-256h-256v-256h512v-256h-512v-512h-512v512h-512v256z" />
    <glyph glyph-name="uni000D" unicode="&#xd;" 
d="M1024 2048h512v256h-512v-256zM1024 1792v-1536h-256v-256h-768v512h256v256h256v1792h1536v-768h-1024z" />
    <glyph glyph-name="uni000E" 
d="M768 2048h768v256h-768v-256zM1280 1024h256v768h-768v-1536h-256v-256h-512v768h256v1792h1792v-2048h-256v-256h-512v768z" />
    <glyph glyph-name="uni000F" 
d="M0 768h512v-256h-512v256zM768 1024h512v256h-512v-256zM1536 1792h512v-256h-512v256zM1536 768h-256v-768h-512v768h-256v256h-512v256h512v256h-512v256h512v-256h256v768h512v-768h256v-256h512v-256h-512v-256h512v-256h-512v256z" />
    <glyph glyph-name="uni0010" 
d="M1280 1024h-256v-256h-256v-256h-256v-256h-256v-256h-256v2816h256v-256h256v-256h256v-256h256v-256h256v-256h512v-256h-512v-256z" />
    <glyph glyph-name="uni0011" 
d="M0 1536h512v256h256v256h256v256h256v256h256v256h256v-2816h-256v256h-256v256h-256v256h-256v256h-256v256h-512v256z" />
    <glyph glyph-name="uni0012" 
d="M768 512h-256v256h-256v256h512v768h-512v256h256v256h256v256h512v-256h256v-256h256v-256h-512v-768h512v-256h-256v-256h-256v-256h-512v256z" />
    <glyph glyph-name="uni0013" 
d="M1280 512h512v-512h-512v512zM256 512h512v-512h-512v512zM1280 2560h512v-1792h-512v1792zM256 2560h512v-1792h-512v1792z" />
    <glyph glyph-name="uni0014" 
d="M512 1536h256v768h-256v-768zM0 2304h256v256h1792v-2560h-512v2304h-256v-2304h-512v1280h-512v256h-256v768z" />
    <glyph glyph-name="uni0015" 
d="M1024 1024h256v512h-256v256h-256v-256h-256v-512h256v-256h256v256zM0 256h512v-256h768v256h-256v256h-512v256h-256v256h-256v512h256v256h256v256h-256v256h-256v256h256v256h1280v-256h256v-256h-512v256h-768v-256h256v-256h512v-256h256v-256h256v-512h-256v-256
h-256v-256h256v-256h256v-256h-256v-256h-1280v256h-256v256z" />
    <glyph glyph-name="uni0016" 
d="M0 1024h1792v-1024h-1792v1024z" />
    <glyph glyph-name="uni0017" 
d="M256 2048h256v256h256v256h512v-256h256v-256h256v-256h-512v-768h512v-256h-256v-256h-256v-256h512v-256h-1536v256h512v256h-256v256h-256v256h512v768h-512v256z" />
    <glyph glyph-name="uni0018" 
d="M256 2048h256v256h256v256h512v-256h256v-256h256v-256h-512v-1792h-512v1792h-512v256z" />
    <glyph glyph-name="uni0019" 
d="M256 768h512v1792h512v-1792h512v-256h-256v-256h-256v-256h-512v256h-256v256h-256v256z" />
    <glyph glyph-name="uni001A" 
d="M768 1792h512v-256h256v-256h256v-256h-256v-256h-256v-256h-512v256h256v256h-1024v256h1024v256h-256v256z" />
    <glyph glyph-name="uni001B" 
d="M512 768h-256v256h-256v256h256v256h256v256h512v-256h-256v-256h1024v-256h-1024v-256h256v-256h-512v256z" />
    <glyph glyph-name="uni001C" 
d="M0 1536h512v-768h1280v-256h-1792v1024z" />
    <glyph glyph-name="uni001D" 
d="M1536 768h-256v-256h-256v512h-256v-512h-256v256h-256v256h-256v256h256v256h256v256h256v-512h256v512h256v-256h256v-256h256v-256h-256v-256z" />
    <glyph glyph-name="uni001E" 
d="M0 768h256v512h256v512h256v256h256v-256h256v-512h256v-512h256v-512h-1792v512z" />
    <glyph glyph-name="uni001F" 
d="M1536 1024h-256v-512h-256v-256h-256v256h-256v512h-256v512h-256v512h1792v-512h-256v-512z" />
    <glyph glyph-name="visiblespace" unicode=" " 
 />
    <glyph glyph-name="exclam" unicode="!" 
d="M768 512h512v-512h-512v512zM512 2304h256v256h512v-256h256v-768h-256v-768h-512v768h-256v768z" />
    <glyph glyph-name="quotedbl" unicode="&#x22;" 
d="M1536 1792h-256v1024h512v-768h-256v-256zM512 2048h-256v768h512v-1024h-256v256z" />
    <glyph glyph-name="numbersign" unicode="#" 
d="M1024 768v768h-256v-768h256zM256 2304h512v-512h256v512h512v-512h256v-256h-256v-768h256v-256h-256v-512h-512v512h-256v-512h-512v512h-256v256h256v768h-256v256h256v512z" />
    <glyph glyph-name="dollar" unicode="$" 
d="M1280 2304h-768v-768h1024v-256h256v-1024h-256v-256h-256v-512h-512v512h-512v256h-256v512h256v-256h256v-256h768v1024h-1024v256h-256v768h256v256h512v512h512v-512h256v-256h256v-512h-256v256h-256v256z" />
    <glyph glyph-name="uni0025" unicode="%" 
d="M1280 512h512v-512h-512v512zM0 2048h512v-512h-512v512zM1536 1280h-256v-256h-256v-256h-256v-256h-256v-256h-256v-256h-256v512h256v256h256v256h256v256h256v256h256v256h256v256h256v-512h-256v-256z" />
    <glyph glyph-name="ampersand" unicode="&#x26;" 
d="M1024 2304h-256v-512h256v512zM1280 1534l2 2h510v-256h-256v-1024h256v-256h-512v256h-256v768h-256v256h-256v-1024h510l2 -5v-251h-768v256h-256v1024h256v256h256v256h-256v512h256v256h768v-256h256v-512h-256v-256h-256v-256h256v254z" />
    <glyph glyph-name="quotesingle" unicode="'" 
d="M256 2048h256v768h512v-768h-256v-256h-512v256z" />
    <glyph glyph-name="parenleft" unicode="(" 
d="M512 2048h256v256h256v256h512v-256h-256v-256h-256v-1536h256v-256h256v-256h-512v256h-256v256h-256v1536z" />
    <glyph glyph-name="parenright" unicode=")" 
d="M512 256h256v256h256v1536h-256v256h-256v256h512v-256h256v-256h256v-1536h-256v-256h-256v-256h-512v256z" />
    <glyph glyph-name="asterisk" unicode="*" 
d="M256 1792h512v-256h512v256h512v-256h-256v-256h512v-256h-512v-256h256v-256h-512v256h-512v-256h-512v256h256v256h-512v256h512v256h-256v256z" />
    <glyph glyph-name="plus" unicode="+" 
d="M256 1280h512v512h512v-512h512v-256h-512v-512h-512v512h-512v256z" />
    <glyph glyph-name="comma" unicode="," 
d="M512 0h256v768h512v-768h-256v-256h-512v256z" />
    <glyph glyph-name="hyphen" unicode="-" 
d="M0 1280h1792v-256h-1792v256z" />
    <glyph glyph-name="period" unicode="." 
d="M768 512h512v-512h-512v512z" />
    <glyph glyph-name="slash" unicode="/" 
d="M1536 1280h-256v-256h-256v-256h-256v-256h-256v-256h-256v-256h-256v512h256v256h256v256h256v256h256v256h256v256h256v256h256v-512h-256v-256z" />
    <glyph glyph-name="zero" unicode="0" 
d="M768 1536h256v-512h-256v512zM1024 512h256v1536h-256v256h-256v-256h-256v-1536h256v-256h256v256zM512 256h-256v256h-256v1536h256v256h256v256h768v-256h256v-256h256v-1536h-256v-256h-256v-256h-768v256z" />
    <glyph glyph-name="one" unicode="1" 
d="M256 2048h256v256h256v256h512v-2304h512v-256h-1536v256h512v1536h-512v256z" />
    <glyph glyph-name="two" unicode="2" 
d="M0 768h256v256h256v256h256v256h256v256h256v512h-768v-256h-512v256h256v256h1280v-256h256v-512h-256v-256h-256v-256h-256v-256h-256v-256h-256v-512h768v256h512v-512h-1792v768z" />
    <glyph glyph-name="three" unicode="3" 
d="M512 1536h768v768h-768v-256h-512v256h256v256h1280v-256h256v-768h-256v-256h256v-1024h-256v-256h-1280v256h-256v256h512v-256h768v1024h-768v256z" />
    <glyph glyph-name="four" unicode="4" 
d="M512 1280h512v512h-256v-256h-256v-256zM1792 1280v-256h-256v-768h256v-256h-1024v256h256v768h-1024v512h256v256h256v256h256v256h256v256h512v-1280h256z" />
    <glyph glyph-name="five" unicode="5" 
d="M512 1536h1024v-256h256v-1024h-256v-256h-1280v256h-256v256h512v-256h768v1024h-1280v1280h1792v-256h-1280v-768z" />
    <glyph glyph-name="six" unicode="6" 
d="M1280 1280h-768v-1024h768v1024zM256 2304h256v256h768v-256h-512v-256h-256v-512h1024v-256h256v-1024h-256v-256h-1280v256h-256v1792h256v256z" />
    <glyph glyph-name="seven" unicode="7" 
d="M512 1024h256v256h256v256h256v768h-768v-256h-512v512h1792v-1024h-256v-256h-256v-256h-256v-1024h-512v1024z" />
    <glyph glyph-name="eight" unicode="8" 
d="M1280 2304h-768v-768h768v768zM1280 1280h-768v-1024h768v1024zM0 1280h256v256h-256v768h256v256h1280v-256h256v-768h-256v-256h256v-1024h-256v-256h-1280v256h-256v1024z" />
    <glyph glyph-name="nine" unicode="9" 
d="M256 256h1024v-256h-1024v256zM512 1536h768v768h-768v-768zM1024 512h256v768h-1024v256h-256v768h256v256h1280v-256h256v-1792h-256v-256h-512v256z" />
    <glyph glyph-name="colon" unicode=":" 
d="M768 768h512v-512h-512v512zM768 2048h512v-512h-512v512z" />
    <glyph glyph-name="semicolon" unicode=";" 
d="M768 2048h512v-512h-512v512zM768 768h512v-512h-256v-256h-512v256h256v512z" />
    <glyph glyph-name="less" unicode="&#x3c;" 
d="M1280 2304h512v-256h-256v-256h-256v-256h-256v-256h-256v-256h256v-256h256v-256h256v-256h256v-256h-512v256h-256v256h-256v256h-256v256h-256v256h256v256h256v256h256v256h256v256z" />
    <glyph glyph-name="equal" unicode="=" 
d="M256 1792h1536v-256h-1536v256zM256 1024h1536v-256h-1536v256z" />
    <glyph glyph-name="greater" unicode="&#x3e;" 
d="M256 2304h512v-256h256v-256h256v-256h256v-256h256v-256h-256v-256h-256v-256h-256v-256h-256v-256h-512v256h256v256h256v256h256v256h256v256h-256v256h-256v256h-256v256h-256v256z" />
    <glyph glyph-name="question" unicode="?" 
d="M768 512h512v-512h-512v512zM768 1536h256v256h256v512h-768v-512h-512v512h256v256h1280v-256h256v-512h-256v-256h-256v-768h-512v768z" />
    <glyph glyph-name="at" unicode="@" 
d="M768 1536h512v512h-768v-1792h1024v-256h-1280v256h-256v1792h256v256h1280v-256h256v-1280h-256v-256h-768v1024z" />
    <glyph glyph-name="A" unicode="A" 
d="M1024 2048h-256v-256h-256v-512h768v512h-256v256zM1280 0v1024h-768v-1024h-512v1792h256v256h256v256h256v256h256v-256h256v-256h256v-256h256v-1792h-512z" />
    <glyph glyph-name="B" unicode="B" 
d="M768 1536h512v768h-512v-768zM1280 1280h-512v-1024h512v1024zM0 256h256v2048h-256v256h1536v-256h256v-768h-256v-256h256v-1024h-256v-256h-1536v256z" />
    <glyph glyph-name="C" unicode="C" 
d="M1280 2304h-512v-256h-256v-1536h256v-256h512v256h256v256h256v-512h-256v-256h-1024v256h-256v256h-256v1536h256v256h256v256h1024v-256h256v-512h-256v256h-256v256z" />
    <glyph glyph-name="D" unicode="D" 
d="M1280 2048h-256v256h-256v-2048h256v256h256v1536zM1280 256v-256h-1280v256h256v2048h-256v256h1280v-256h256v-256h256v-1536h-256v-256h-256z" />
    <glyph glyph-name="E" unicode="E" 
d="M1024 1280h-256v-1024h512v256h256v256h256v-768h-1792v256h256v2048h-256v256h1792v-768h-256v256h-256v256h-512v-768h256v256h256v-768h-256v256z" />
    <glyph glyph-name="F" unicode="F" 
d="M1536 2048h-256v256h-512v-768h256v256h256v-768h-256v256h-256v-1024h256v-256h-1024v256h256v2048h-256v256h1792v-768h-256v256z" />
    <glyph glyph-name="G" unicode="G" 
d="M768 1280h1024v-1280h-256v256h-256v768h-512v256zM1280 2304h-512v-256h-256v-1536h256v-256h512v-256h-768v256h-256v256h-256v1536h256v256h256v256h1024v-256h256v-512h-256v256h-256v256z" />
    <glyph glyph-name="H" unicode="H" 
d="M1280 1280h-768v-1280h-512v2560h512v-1024h768v1024h512v-2560h-512v1280z" />
    <glyph glyph-name="I" unicode="I" 
d="M512 2560h1024v-256h-256v-2048h256v-256h-1024v256h256v2048h-256v256z" />
    <glyph glyph-name="J" unicode="J" 
d="M768 2560h1024v-256h-256v-2048h-256v-256h-1024v256h-256v768h512v-768h512v2048h-256v256z" />
    <glyph glyph-name="K" unicode="K" 
d="M1536 1536h-256v-512h256v-256h256v-768h-512v768h-256v256h-256v-1024h-768v256h256v2048h-256v256h768v-1024h256v256h256v768h512v-768h-256v-256z" />
    <glyph glyph-name="L" unicode="L" 
d="M768 256h512v256h256v256h256v-768h-1792v256h256v2048h-256v256h768h256v-256h-256v-2048z" />
    <glyph glyph-name="M" unicode="M" 
d="M1024 1280h-256v256h-256v-1536h-512v2560h512v-256h256v-256h256v256h256v256h512v-2560h-512v1536h-256v-256z" />
    <glyph glyph-name="N" unicode="N" 
d="M1024 1280h-256v256h-256v-1536h-512v2560h512v-256h256v-256h256v-256h256v768h512v-2560h-512v1024h-256v256z" />
    <glyph glyph-name="O" unicode="O" 
d="M1280 2304h-768v-2048h768v2048zM0 2304h256v256h1280v-256h256v-2048h-256v-256h-1280v256h-256v2048z" />
    <glyph glyph-name="P" unicode="P" 
d="M1280 2304h-512v-768h512v768zM768 256h256v-256h-1024v256h256v2048h-256v256h1536v-256h256v-768h-256v-256h-768v-1024z" />
    <glyph glyph-name="Q" unicode="Q" 
d="M1024 512h256v1792h-768v-2048h256v512h256v-256zM1024 0h-768v256h-256v2048h256v256h1280v-256h256v-2048h-256v-512h256v-256h-768v512z" />
    <glyph glyph-name="R" unicode="R" 
d="M1280 2304h-512v-768h512v768zM1280 1024h-256v256h-256v-1280h-768v256h256v2048h-256v256h1536v-256h256v-768h-256v-512h256v-1024h-512v1024z" />
    <glyph glyph-name="S" unicode="S" 
d="M0 768h512v-512h768v768h-256v256h-512v256h-256v256h-256v512h256v256h1280v-256h256v-512h-512v512h-768v-512h256v-256h512v-256h256v-256h256v-768h-256v-256h-1280v256h-256v512z" />
    <glyph glyph-name="T" unicode="T" 
d="M512 256h256v1792h-256v-256h-256v768h1536v-768h-256v256h-256v-1792h256v-256h-1024v256z" />
    <glyph glyph-name="U" unicode="U" 
d="M0 2560h512v-2304h768v2304h512v-2304h-256v-256h-1280v256h-256v2304z" />
    <glyph glyph-name="V" unicode="V" 
d="M768 256h-256v256h-256v256h-256v1792h512v-1792h256v-256h256v256h256v1792h512v-1792h-256v-256h-256v-256h-256v-256h-256v256z" />
    <glyph glyph-name="W" unicode="W" 
d="M768 0h-512v256h-256v2304h512v-1792h256v768h256v-768h256v1792h512v-2304h-256v-256h-512v512h-256v-512z" />
    <glyph glyph-name="X" unicode="X" 
d="M512 1536h-256v512h-256v512h512v-512h256v-256h256v256h256v512h512v-512h-256v-512h-256v-512h256v-512h256v-512h-512v512h-256v256h-256v-256h-256v-512h-512v512h256v512h256v512z" />
    <glyph glyph-name="Y" unicode="Y" 
d="M512 256h256v1024h-256v256h-256v1024h512v-1024h512v1024h512v-1024h-256v-256h-256v-1024h256v-256h-1024v256z" />
    <glyph glyph-name="Z" unicode="Z" 
d="M0 768h256v256h256v256h256v256h256v256h256v512h-768v-256h-256v-256h-256v768h1792v-768h-256v-256h-256v-256h-256v-256h-256v-256h-256v-512h768v256h256v256h256v-768h-1792v768z" />
    <glyph glyph-name="bracketleft" unicode="[" 
d="M1024 256h512v-256h-1024v2560h1024v-256h-512v-2048z" />
    <glyph glyph-name="backslash" unicode="\" 
d="M1536 256h-256v256h-256v256h-256v256h-256v256h-256v256h-256v768h256v-256h256v-256h256v-256h256v-256h256v-256h256v-256h256v-768h-256v256z" />
    <glyph glyph-name="bracketright" unicode="]" 
d="M512 256h512v2048h-512v256h1024v-2560h-1024v256z" />
    <glyph glyph-name="asciicircum" unicode="^" 
d="M1024 2560h-256v-256h-256v-256h-512v256h256v256h256v256h256v256h256v-256h256v-256h256v-256h256v-256h-512v256h-256v256z" />
    <glyph glyph-name="underscore" unicode="_" 
d="M0 -256h2048v-256h-2048v256z" />
    <glyph glyph-name="grave" unicode="`" 
d="M1024 2304h-256v256h-256v256h512v-256h256v-256h256v-256h-512v256z" />
    <glyph glyph-name="a" unicode="a" 
d="M1024 0h-768v256h-256v768h256v256h768v256h-768v256h1024v-256h256v-1280h256v-256h-512v256h-254l-2 2v766h-512v-768h512v-256z" />
    <glyph glyph-name="b" unicode="b" 
d="M1024 1536h-256v-1280h512v1024h-256v256zM768 1792h512v-256h256v-256h256v-1024h-256v-256h-1280v2304h-256v256h768v-768z" />
    <glyph glyph-name="c" unicode="c" 
d="M1280 1536h-768v-1280h768v256h512v-256h-256v-256h-1280v256h-256v1280h256v256h1280v-256h256v-256h-512v256z" />
    <glyph glyph-name="d" unicode="d" 
d="M1024 1536h-256v-256h-256v-1024h510l2 -2v-254h-768v256h-256v1024h256v256h256v256h512v512h-256v256h768v-2304h256v-256h-512v256h-256v1280z" />
    <glyph glyph-name="e" unicode="e" 
d="M512 1280h768v256h-768v-256zM256 1792h1280v-256h256v-512h-1280v-768h768v256h512v-256h-256v-256h-1280v256h-256v1280h256v256z" />
    <glyph glyph-name="f" unicode="f" 
d="M256 1536h256v768h256v256h768v-256h256v-512h-256v256h-256v256h-256v-768h256v-256h-256v-1024h256v-256h-1024v256h256v1024h-256v256z" />
    <glyph glyph-name="g" unicode="g" 
d="M1024 1534l2 2h254v256h512v-256h-256v-2048h-256v-256h-1024v256h-256v256h512v-256h512v512h-768v256h-256v1280h256v256h768v-256h-512v-1280h512v1278z" />
    <glyph glyph-name="h" unicode="h" 
d="M1024 1792h512v-256h256v-1536h-512v1536h-256v256zM768 0h-768v256h256v2048h-256v256h768v-1024h256v-256h-256v-1280z" />
    <glyph glyph-name="i" unicode="i" 
d="M768 2560h512v-512h-512v512zM512 1792h768v-1536h256v-256h-1024v256h256v1280h-256v256z" />
    <glyph glyph-name="j" unicode="j" 
d="M1280 2560h512v-512h-512v512zM1024 1792h768v-2304h-256v-256h-1024v256h-256v512h512v-512h512v2048h-256v256z" />
    <glyph glyph-name="k" unicode="k" 
d="M1024 1536h256v256h512v-256h-256v-256h-256v-512h256v-256h256v-512h-512v512h-256v256h-256v-768h-768v256h256v2048h-256v256h768v-1280h256v256z" />
    <glyph glyph-name="l" unicode="l" 
d="M512 2560h768v-2304h256v-256h-1024v256h256v2048h-256v256z" />
    <glyph glyph-name="m" unicode="m" 
d="M1280 1280h-256v-1024h-256v1024h-256v-1280h-512v1792h768v-256h256v256h512v-256h256v-1536h-512v1280z" />
    <glyph glyph-name="n" unicode="n" 
d="M256 1536h-256v256h512v-256h256v-1536h-512v1536zM768 1792h768v-256h256v-1536h-512v1536h-512v256z" />
    <glyph glyph-name="o" unicode="o" 
d="M1280 1536h-768v-1280h768v1280zM256 256h-256v1280h256v256h1280v-256h256v-1280h-256v-256h-1280v256z" />
    <glyph glyph-name="p" unicode="p" 
d="M768 1792h768v-256h256v-1280h-256v-256h-768v-512h256v-256h-1024v256h256v2048h-256v256h512v-256h254l2 -2v-1278h512v1280h-512v256z" />
    <glyph glyph-name="q" unicode="q" 
d="M1024 256v1278l2 2h254v256h512v-256h-256v-2048h256v-256h-1024v256h256v512h-768v256h-256v1280h256v256h768v-256h-512v-1280h512z" />
    <glyph glyph-name="r" unicode="r" 
d="M1024 1280h-256v-1024h256v-256h-1024v256h256v1280h-256v256h512v-256h256v256h768v-256h256v-512h-512v512h-256v-256z" />
    <glyph glyph-name="s" unicode="s" 
d="M1280 1536h-768v-256h256v-256h512v-256h256v-256h256v-256h-256v-256h-1280v256h-256v256h512v-256h768v256h-256v256h-512v256h-256v256h-256v256h256v256h1280v-256h256v-256h-512v256z" />
    <glyph glyph-name="t" unicode="t" 
d="M0 1792h512v512h256v256h256v-768h512v-256h-512v-1280h256v256h512v-256h-256v-256h-768v256h-256v1280h-512v256z" />
    <glyph glyph-name="u" unicode="u" 
d="M1024 1792h512v-1536h256v-256h-512v256h-256v1536zM0 1792h512v-1536h512v-256h-768v256h-256v1536z" />
    <glyph glyph-name="v" unicode="v" 
d="M1280 1792h512v-1280h-256v-256h-256v-256h-768v256h-256v256h-256v1280h512v-1280h256v-256h256v256h256v1280z" />
    <glyph glyph-name="w" unicode="w" 
d="M1536 0h-512v256h-256v-256h-512v256h-256v1536h512v-1280h256v768h256v-768h256v1280h512v-1536h-256v-256z" />
    <glyph glyph-name="x" unicode="x" 
d="M0 1792h512v-256h256v-256h256v256h256v256h512v-256h-256v-256h-256v-768h256v-256h256v-256h-512v256h-256v256h-256v-256h-256v-256h-512v256h256v256h256v768h-256v256h-256v256z" />
    <glyph glyph-name="y" unicode="y" 
d="M0 -512h1024v256h256v256h-1024v256h-256v1536h512v-1536h768v1536h512v-2048h-256v-256h-256v-256h-1280v256z" />
    <glyph glyph-name="z" unicode="z" 
d="M0 1792h1792v-256h-256v-256h-256v-256h-256v-256h-256v-256h-256v-256h768v256h512v-512h-1792v512h256v256h256v256h256v256h256v256h-512v-256h-512v512z" />
    <glyph glyph-name="braceleft" unicode="{" 
d="M1024 2560h768v-256h-512v-768h-256v-256h256v-1024h512v-256h-768v256h-256v1024h-512v256h512v768h256v256z" />
    <glyph glyph-name="bar" unicode="|" 
d="M768 2560h512v-2560h-512v2560z" />
    <glyph glyph-name="braceright" unicode="}" 
d="M256 256h512v1024h256v256h-256v768h-512v256h768v-256h256v-768h512v-256h-512v-1024h-256v-256h-768v256z" />
    <glyph glyph-name="asciitilde" unicode="~" 
d="M1280 2816h512v-256h-256v-256h-768v256h-256v-256h-512v256h256v256h768v-256h256v256z" />
    <glyph glyph-name="uni007F" 
d="M1024 1536h-256v-256h-256v-768h768v768h-256v256zM1280 1536h256v-256h256v-1024h-1792v1024h256v256h256v256h256v256h256v-256h256v-256z" />
    <glyph glyph-name="Euro" unicode="&#x20ac;" 
d="M256 -256h512v256h-256v256h-256v256h-256v1536h256v256h256v256h1024v-256h256v-512h-256v256h-256v256h-512v-256h-256v-1536h256v-256h512v256h256v256h256v-512h-256v-256h-256v-256h-256v-256h-768v256z" />
    <glyph glyph-name="uni0081" 
d="M1024 2560h512v-256h-512v256zM0 2560h512v-256h-512v256zM1024 1792h512v-1536h256v-256h-512v256h-256v1536zM0 1792h512v-1536h512v-256h-768v256h-256v1536z" />
    <glyph glyph-name="quotesinglbase" unicode="&#x201a;" 
d="M512 1280h768v256h-768v-256zM768 2560h256v256h512v-256h-256v-256h-256v-256h-512v256h256v256zM256 1792h1280v-256h256v-512h-1280v-768h768v256h512v-256h-256v-256h-1280v256h-256v1280h256v256z" />
    <glyph glyph-name="florin" unicode="&#x192;" 
d="M256 2304h256v256h256v256h256v-256h256v-256h256v-256h-512v256h-256v-256h-512v256zM1024 0h-768v256h-256v768h256v256h768v256h-768v256h1024v-256h256v-1280h256v-256h-512v256h-254l-2 2v766h-512v-768h512v-256z" />
    <glyph glyph-name="quotedblbase" unicode="&#x201e;" 
d="M1024 2560h512v-256h-512v256zM0 2560h512v-256h-512v256zM1024 0h-768v256h-256v768h256v256h768v256h-768v256h1024v-256h256v-1280h256v-256h-512v256h-254l-2 2v766h-512v-768h512v-256z" />
    <glyph glyph-name="ellipsis" unicode="&#x2026;" 
d="M768 2304h-256v256h-256v256h512v-256h256v-256h256v-256h-512v256zM1024 0h-768v256h-256v768h256v256h768v256h-768v256h1024v-256h256v-1280h256v-256h-512v256h-254l-2 2v766h-512v-768h512v-256z" />
    <glyph glyph-name="dagger" unicode="&#x2020;" 
d="M1024 2560h-256v-256h256v256zM256 2560h256v256h768v-256h256v-256h-256v-256h-768v256h-256v256zM1024 0h-768v256h-256v768h256v256h768v256h-768v256h1024v-256h256v-1280h256v-256h-512v256h-254l-2 2v766h-512v-768h512v-256z" />
    <glyph glyph-name="daggerdbl" unicode="&#x2021;" 
d="M256 -256h512v256h-512v256h-256v1280h256v256h1280v-256h256v-256h-512v256h-768v-1280h768v256h512v-256h-256v-256h-256v-256h-256v-256h-768v256z" />
    <glyph glyph-name="circumflex" unicode="&#x2c6;" 
d="M512 1280h768v256h-768v-256zM768 2816h256v-256h256v-256h256v-256h-512v256h-256v-256h-512v256h256v256h256v256zM256 1792h1280v-256h256v-512h-1280v-768h768v256h512v-256h-256v-256h-1280v256h-256v1280h256v256z" />
    <glyph glyph-name="perthousand" unicode="&#x2030;" 
d="M1280 2560h512v-256h-512v256zM0 2560h512v-256h-512v256zM512 1280h768v256h-768v-256zM256 1792h1280v-256h256v-512h-1280v-768h768v256h512v-256h-256v-256h-1280v256h-256v1280h256v256z" />
    <glyph glyph-name="Scaron" unicode="&#x160;" 
d="M512 1280h768v256h-768v-256zM768 2304h-256v256h-256v256h512v-256h256v-256h256v-256h-512v256zM256 1792h1280v-256h256v-512h-1280v-768h768v256h512v-256h-256v-256h-1280v256h-256v1280h256v256z" />
    <glyph glyph-name="guilsinglleft" unicode="&#x2039;" 
d="M256 2560h512v-256h-512v256zM1280 2560h512v-256h-512v256zM512 1792h768v-1536h256v-256h-1024v256h256v1280h-256v256z" />
    <glyph glyph-name="OE" unicode="&#x152;" 
d="M1280 2304h-512v-256h-512v256h256v256h256v256h512v-256h256v-256h256v-256h-512v256zM512 1792h768v-1536h256v-256h-1024v256h256v1280h-256v256z" />
    <glyph glyph-name="uni008D" 
d="M256 2816h512v-256h256v-256h256v-256h-512v256h-256v256h-256v256zM512 1792h768v-1536h256v-256h-1024v256h256v1280h-256v256z" />
    <glyph glyph-name="uni008E" 
d="M1280 2816h512v-256h-512v256zM0 2816h512v-256h-512v256zM1024 2048h-256v-256h-256v-512h768v512h-256v256zM1280 0v1024h-768v-1024h-512v1792h256v256h256v256h256v256h256v-256h256v-256h256v-256h256v-1792h-512z" />
    <glyph glyph-name="uni008F" 
d="M1024 2816h-256v-256h256v256zM1024 1792h-256v-256h-256v-256h768v256h-256v256zM1280 2048v-256h256v-256h256v-1536h-512v1024h-768v-1024h-512v1536h256v256h256v256h256v256h-256v256h-256v256h256v256h768v-256h256v-256h-256v-256h-256v-256h256z" />
    <glyph glyph-name="uni0090" 
d="M768 2816h256v256h512v-256h-256v-256h-512v256zM1024 1024h-256v-768h512v256h256v256h256v-768h-1792v256h256v1792h-256v256h1792v-768h-256v256h-256v256h-512v-768h256v256h256v-768h-256v256z" />
    <glyph glyph-name="quoteleft" unicode="&#x2018;" 
d="M1024 1024h256v512h-254l-2 2v254h512v-256h256v-768h-512v-512h512v-256h-768v256h-254l-2 2v510h-256v-512h256v-256h-512v256h-256v512h256v256h256v512h-512v256h768v-256h256v-512z" />
    <glyph glyph-name="quoteright" unicode="&#x2019;" 
d="M512 2048h512v768h-256v-256h-256v-512zM1024 1792h-512v-1792h-512v2560h256v256h256v256h1280v-256h-256v-768h256v-256h-256v-1536h256v-256h-768v1792z" />
    <glyph glyph-name="quotedblleft" unicode="&#x201c;" 
d="M1024 2304h-256v-256h-512v256h256v256h256v256h256v-256h256v-256h256v-256h-512v256zM1280 1536h-768v-1280h768v1280zM256 256h-256v1280h256v256h1280v-256h256v-1280h-256v-256h-1280v256z" />
    <glyph glyph-name="quotedblright" unicode="&#x201d;" 
d="M1280 2560h512v-256h-512v256zM0 2560h512v-256h-512v256zM1280 1536h-768v-1280h768v1280zM256 256h-256v1280h256v256h1280v-256h256v-1280h-256v-256h-1280v256z" />
    <glyph glyph-name="bullet" unicode="&#x2022;" 
d="M256 2816h512v-256h256v-256h256v-256h-512v256h-256v256h-256v256zM1280 1536h-768v-1280h768v1280zM256 256h-256v1280h256v256h1280v-256h256v-1280h-256v-256h-1280v256z" />
    <glyph glyph-name="endash" unicode="&#x2013;" 
d="M1024 2304h-512v-256h-512v256h256v256h256v256h512v-256h256v-256h256v-256h-512v256zM1024 1792h512v-1536h256v-256h-512v256h-256v1536zM0 1792h512v-1536h512v-256h-768v256h-256v1536z" />
    <glyph glyph-name="emdash" unicode="&#x2014;" 
d="M256 2816h512v-256h256v-256h256v-256h-512v256h-256v256h-256v256zM1024 1792h512v-1536h256v-256h-512v256h-256v1536zM0 1792h512v-1536h512v-256h-768v256h-256v1536z" />
    <glyph glyph-name="tilde" unicode="&#x2dc;" 
d="M0 2560h512v-256h-512v256zM1280 2560h512v-256h-512v256zM0 -512h1024v256h256v256h-1024v256h-256v1536h512v-1536h768v1536h512v-2048h-256v-256h-256v-256h-1280v256z" />
    <glyph glyph-name="trademark" unicode="&#x2122;" 
d="M1280 2816h512v-256h-512v256zM0 2816h512v-256h-512v256zM1280 2048h-768v-1792h768v1792zM0 2048h256v256h1280v-256h256v-1792h-256v-256h-1280v256h-256v1792z" />
    <glyph glyph-name="scaron" unicode="&#x161;" 
d="M0 2816h512v-256h-512v256zM1280 2816h512v-256h-512v256zM0 2304h512v-2048h768v2048h512v-2048h-256v-256h-1280v256h-256v2048z" />
    <glyph glyph-name="guilsinglright" unicode="&#x203a;" 
d="M1280 2048h-768v-1280h768v256h512v-256h-256v-256h-256v-512h-512v512h-512v256h-256v1280h256v256h512v512h512v-512h256v-256h256v-256h-512v256z" />
    <glyph glyph-name="oe" unicode="&#x153;" 
d="M1024 2560h-256v-768h256v-256h-256v-1280h512v256h512v-256h-256v-256h-1536v512h256v1024h-256v256h256v768h256v256h768v-256h256v-512h-256v256h-256v256z" />
    <glyph glyph-name="uni009D" 
d="M256 1024h512v256h-512v256h512v256h-256v256h-256v512h512v-512h512v512h512v-512h-256v-256h-256v-256h512v-256h-512v-256h512v-256h-512v-768h-512v768h-512v256z" />
    <glyph glyph-name="uni009E" 
d="M1024 2560h-512v-512h512v512zM768 1280h256v256h256v256h-768v-1792h-512v2816h1280v-256h256v-512h-256v-256h256v-512h256v-256h-256v-768h256v-256h-512v256h-256v768h-256v256z" />
    <glyph glyph-name="Ydieresis" unicode="&#x178;" 
d="M256 1536h512v1024h256v256h768v-256h256v-256h-512v256h-256v-1024h512v-256h-512v-1024h-256v-256h-768v256h-256v256h512v-256h256v1024h-512v256z" />
    <glyph glyph-name="nonbreakingspace" unicode="&#xa0;" 
d="M768 2816h512v-256h-256v-256h-256v-256h-512v256h256v256h256v256zM1024 0h-768v256h-256v768h256v256h768v256h-768v256h1024v-256h256v-1280h256v-256h-512v256h-254l-2 2v766h-512v-768h512v-256z" />
    <glyph glyph-name="exclamdown" unicode="&#xa1;" 
d="M1024 2816h512v-256h-256v-256h-256v-256h-512v256h256v256h256v256zM512 1792h768v-1536h256v-256h-1024v256h256v1280h-256v256z" />
    <glyph glyph-name="cent" unicode="&#xa2;" 
d="M768 2816h512v-256h-256v-256h-256v-256h-512v256h256v256h256v256zM1280 1536h-768v-1280h768v1280zM256 256h-256v1280h256v256h1280v-256h256v-1280h-256v-256h-1280v256z" />
    <glyph glyph-name="sterling" unicode="&#xa3;" 
d="M256 2304h256v256h256v256h512v-256h-256v-256h-256v-256h-512v256zM1024 1792h512v-1536h256v-256h-512v256h-256v1536zM0 1792h512v-1536h512v-256h-768v256h-256v1536z" />
    <glyph glyph-name="currency" unicode="&#xa4;" 
d="M768 2304h-256v-256h-512v256h256v256h768v-256h256v256h512v-256h-256v-256h-768v256zM256 1536h-256v256h512v-256h256v-1536h-512v1536zM768 1792h768v-256h256v-1536h-512v1536h-512v256z" />
    <glyph glyph-name="yen" unicode="&#xa5;" 
d="M1280 3072h512v-256h-256v-256h-768v256h-256v-256h-512v256h256v256h768v-256h256v256zM1024 1024h-256v256h-256v-1280h-512v2304h512v-256h256v-256h256v-256h256v768h512v-2304h-512v768h-256v256z" />
    <glyph glyph-name="brokenbar" unicode="&#xa6;" 
d="M768 1792h256v512h-256v-512zM256 1280h1536v-256h-1536v256zM512 1792h-256v512h256v256h1024v-768h256v-256h-1280v256z" />
    <glyph glyph-name="section" unicode="&#xa7;" 
d="M1024 2304h-256v-512h256v512zM256 1280h1280v-256h-1280v256zM512 1792h-256v512h256v256h768v-256h256v-512h-256v-256h-768v256z" />
    <glyph glyph-name="dieresis" unicode="&#xa8;" 
d="M512 2560h512v-512h-512v512zM512 1792h512v-512h-256v-256h-256v-768h768v512h512v-512h-256v-256h-1280v256h-256v768h256v256h256v512z" />
    <glyph glyph-name="copyright" unicode="&#xa9;" 
d="M512 256h-512v1280h1792v-256h-1280v-1024z" />
    <glyph glyph-name="ordfeminine" unicode="&#xaa;" 
d="M0 1536h1792v-1280h-512v1024h-1280v256z" />
    <glyph glyph-name="guillemotleft" unicode="&#xab;" 
d="M512 -256h256v256h256v256h256v256h-512v256h-256v-256h-256v-256h-256v512h256v256h256v256h256v256h-512v768h-256v256h256v256h512v-1280h256v256h256v256h256v256h256v-512h-256v-256h-256v-256h-256v-256h-256v-256h768v-256h256v-256h-256v-256h-256v-256h512v-256
h-1280v256z" />
    <glyph glyph-name="logicalnot" unicode="&#xac;" 
d="M1536 256v256h-256v-256h256zM1792 -512h-512v512h-768v256h256v256h256v256h256v256h512v-768h256v-256h-256v-512zM768 768h-256v-256h-256v-256h-256v512h256v256h256v256h256v256h-512v768h-256v256h256v256h512v-1280h256v256h256v256h256v256h256v-512h-256v-256
h-256v-256h-256v-256h-256v-256z" />
    <glyph glyph-name="uni00AD" unicode="&#xad;" 
d="M768 2560h512v-512h-512v512zM512 1024h256v768h512v-768h256v-768h-256v-256h-512v256h-256v768z" />
    <glyph glyph-name="registered" unicode="&#xae;" 
d="M1024 1536h256v256h512v-256h-256v-256h-256v-256h256v-256h256v-256h-512v256h-254l-2 2v254h-254l-2 2v254h256v256zM1024 1538l-2 -2h-254v-256h-256v-256h256v-256h256v-256h-512v256h-256v256h-256v256h256v256h256v256h512v-254z" />
    <glyph glyph-name="macron" unicode="&#xaf;" 
d="M768 1792h512v-256h256v-256h256v-256h-256v-256h-256v-256h-512v256h256v256h256v256h-256v256h-254l-2 2v254zM768 1280h256v-254l-2 -2h-254v-254l-2 -2h-254v-256h-512v256h256v256h256v256h-256v256h-256v256h512v-256h256v-256z" />
    <glyph glyph-name="ltshade" unicode="&#xb0;" 
d="M1792 0h256v-256h-256v256zM1792 1024h256v-256h-256v256zM1792 2048h256v-256h-256v256zM1792 2560h256v-256h-256v256zM1792 1536h256v-256h-256v256zM1792 512h256v-256h-256v256zM1792 -512h256v-256h-256v256zM1792 3072h256v-256h-256v256zM1280 -256h256v-256
h-256v256zM1280 768h256v-256h-256v256zM1280 1792h256v-256h-256v256zM1280 2304h256v-256h-256v256zM1280 1280h256v-256h-256v256zM1280 256h256v-256h-256v256zM1280 -768h256v-256h-256v256zM1280 2816h256v-256h-256v256zM768 0h256v-256h-256v256zM768 1024h256v-256
h-256v256zM768 2048h256v-256h-256v256zM768 2560h256v-256h-256v256zM768 1536h256v-256h-256v256zM768 512h256v-256h-256v256zM768 -512h256v-256h-256v256zM768 3072h256v-256h-256v256zM256 -256h256v-256h-256v256zM256 768h256v-256h-256v256zM256 1792h256v-256
h-256v256zM256 2304h256v-256h-256v256zM256 1280h256v-256h-256v256zM256 256h256v-256h-256v256zM256 -768h256v-256h-256v256zM256 2816h256v-256h-256v256z" />
    <glyph glyph-name="plusminus" unicode="&#xb1;" 
d="M1538 -768h254l2 -2v-254h-256v256zM1794 -512h254l2 -2l-2 -254h-254v256zM1026 -768h254l2 -2v-254h-256v256zM1282 -512h254l2 -2l-2 -254h-254v256zM514 -768h254l2 -2v-254h-256v256zM770 -512h254l2 -2l-2 -254h-254v256zM0 -768h254l2 -2v-254h-256v256zM256 -512
h254l2 -2l-2 -254h-254v256zM1538 -256h254l2 -2v-254h-256v256zM1794 0h254l2 -2l-2 -254h-254v256zM1026 -256h254l2 -2v-254h-256v256zM1282 0h254l2 -2l-2 -254h-254v256zM514 -256h254l2 -2v-254h-256v256zM770 0h254l2 -2l-2 -254h-254v256zM0 -256h254l2 -2v-254
h-256v256zM256 0h254l2 -2l-2 -254h-254v256zM1538 256h254l2 -2v-254h-256v256zM1794 512h254l2 -2l-2 -254h-254v256zM1026 256h254l2 -2v-254h-256v256zM1282 512h254l2 -2l-2 -254h-254v256zM514 256h254l2 -2v-254h-256v256zM770 512h254l2 -2l-2 -254h-254v256zM0 256
h254l2 -2v-254h-256v256zM256 512h254l2 -2l-2 -254h-254v256zM1538 768h254l2 -2v-254h-256v256zM1794 1024h254l2 -2l-2 -254h-254v256zM1026 768h254l2 -2v-254h-256v256zM1282 1024h254l2 -2l-2 -254h-254v256zM514 768h254l2 -2v-254h-256v256zM770 1024h254l2 -2
l-2 -254h-254v256zM0 768h254l2 -2v-254h-256v256zM256 1024h254l2 -2l-2 -254h-254v256zM1538 1280h254l2 -2v-254h-256v256zM1794 1536h254l2 -2l-2 -254h-254v256zM1026 1280h254l2 -2v-254h-256v256zM1282 1536h254l2 -2l-2 -254h-254v256zM514 1280h254l2 -2v-254h-256
v256zM770 1536h254l2 -2l-2 -254h-254v256zM0 1280h254l2 -2v-254h-256v256zM256 1536h254l2 -2l-2 -254h-254v256zM1538 1792h254l2 -2v-254h-256v256zM1794 2048h254l2 -2l-2 -254h-254v256zM1026 1792h254l2 -2v-254h-256v256zM1282 2048h254l2 -2l-2 -254h-254v256z
M514 1792h254l2 -2v-254h-256v256zM770 2048h254l2 -2l-2 -254h-254v256zM0 1792h254l2 -2v-254h-256v256zM256 2048h254l2 -2l-2 -254h-254v256zM1538 2304h254l2 -2v-254h-256v256zM1794 2560h254l2 -2l-2 -254h-254v256zM1026 2304h254l2 -2v-254h-256v256zM1282 2560
h254l2 -2l-2 -254h-254v256zM514 2304h254l2 -2v-254h-256v256zM770 2560h254l2 -2l-2 -254h-254v256zM0 2304h254l2 -2v-254h-256v256zM256 2560h254l2 -2l-2 -254h-254v256zM1536 2816h254l2 -2v-254h-256v256zM1792 3072h256v-256h-256v256zM1024 2816h254l2 -2v-254
h-256v256zM1280 3072h256v-256h-256v256zM512 2816h254l2 -2v-254h-256v256zM768 3072h256v-256h-256v256zM0 2816h254l2 -2v-254h-256v256zM256 3072h256v-256h-256v256z" />
    <glyph glyph-name="twosuperior" unicode="&#xb2;" 
d="M1792 2304v256h-256v-256h256zM1792 1280v256h-256v-256h256zM1792 256v256h-256v-256h256zM1792 -768v256h-256v-256h256zM1280 -512v256h-256v-256h256zM1280 512v256h-256v-256h256zM1280 1536v256h-256v-256h256zM1280 2560v256h-256v-256h256zM768 768v256h-256
v-256h256zM768 -256v256h-256v-256h256zM768 1792v256h-256v-256h256zM768 2304v256h-256v-256h256zM768 -768v256h-256v-256h256zM768 256v256h-256v-256h256zM768 1280v256h-256v-256h256zM1280 2048v256h-256v-256h256zM1280 1024v256h-256v-256h256zM1280 0v256h-256
v-256h256zM1792 -256v256h-256v-256h256zM1792 768v256h-256v-256h256zM1792 1792v256h-256v-256h256zM1792 2816v256h256v-4096h-768v256h-256v-256h-768v256h-256v256h256v256h-256v256h256v256h-256v256h256v256h-256v256h256v256h-256v256h256v256h-256v256h256v256
h-256v256h256v256h-256v256h512v-256h256v256h768v-256h256z" />
    <glyph glyph-name="threesuperior" unicode="&#xb3;" 
d="M768 3072h512v-4096h-512v4096z" />
    <glyph glyph-name="acute" unicode="&#xb4;" 
d="M0 1280h768v1792h512v-4096h-512v2048h-768v256z" />
    <glyph glyph-name="mu" unicode="&#xb5;" 
d="M0 1792h768v1280h512v-4096h-512v2048h-768v256h768v256h-768v256z" />
    <glyph glyph-name="paragraph" unicode="&#xb6;" 
d="M1280 3072h512v-4096h-512v4096zM0 1280h512v1792h512v-4096h-512v2048h-512v256z" />
    <glyph glyph-name="periodcentered" unicode="&#xb7;" 
d="M1280 1024h-256v-2048h-512v2048h-512v256h1792v-2304h-512v2048z" />
    <glyph glyph-name="periodcentered" unicode="&#x2219;" 
d="M1280 1024h-256v-2048h-512v2048h-512v256h1792v-2304h-512v2048z" />
    <glyph glyph-name="cedilla" unicode="&#xb8;" 
d="M0 1792h1280v-2816h-512v2048h-768v256h768v256h-768v256z" />
    <glyph glyph-name="onesuperior" unicode="&#xb9;" 
d="M0 1792h512v1280h512v-1536h-1024v256zM0 1280h1024v-2304h-512v2048h-512v256zM1280 3072h512v-4096h-512v4096z" />
    <glyph glyph-name="ordmasculine" unicode="&#xba;" 
d="M1280 3072h512v-4096h-512v4096zM512 3072h512v-4096h-512v4096z" />
    <glyph glyph-name="guillemotright" unicode="&#xbb;" 
d="M0 1280h1024v-2304h-512v2048h-512v256zM0 1792h1792v-2816h-512v2560h-1280v256z" />
    <glyph glyph-name="onequarter" unicode="&#xbc;" 
d="M0 1792h512v1280h512v-1536h-1024v256zM0 1280h1280v1792h512v-2048h-1792v256z" />
    <glyph glyph-name="onehalf" unicode="&#xbd;" 
d="M0 1280h512v1792h512v-1792h256v1792h512v-2048h-1792v256z" />
    <glyph glyph-name="threequarters" unicode="&#xbe;" 
d="M0 1792h768v1280h512v-2048h-1280v256h768v256h-768v256z" />
    <glyph glyph-name="questiondown" unicode="&#xbf;" 
d="M0 1280h1280v-2304h-512v2048h-768v256z" />
    <glyph glyph-name="Agrave" unicode="&#xc0;" 
d="M768 3072h512v-1792h1024v-256h-1536v2048z" />
    <glyph glyph-name="Aacute" unicode="&#xc1;" 
d="M0 1280h768v1792h512v-1792h1024v-256h-2304v256z" />
    <glyph glyph-name="Acircumflex" unicode="&#xc2;" 
d="M0 1280h2304v-256h-1024v-2048h-512v2048h-768v256z" />
    <glyph glyph-name="Atilde" unicode="&#xc3;" 
d="M1280 -1024h-512v4096h512v-1792h1024v-256h-1024v-2048z" />
    <glyph glyph-name="SF100000" unicode="&#xc4;" 
d="M0 1280h2304v-256h-2304v256z" />
    <glyph glyph-name="Aring" unicode="&#xc5;" 
d="M0 1280h768v1792h512v-1792h1024v-256h-1024v-2048h-512v2048h-768v256z" />
    <glyph glyph-name="AE" unicode="&#xc6;" 
d="M1280 1280h1024v-256h-1024v-2048h-512v4096h512v-1280h1024v-256h-1024v-256z" />
    <glyph glyph-name="Ccedilla" unicode="&#xc7;" 
d="M512 3072h512v-4096h-512v4096zM1792 -1024h-512v4096h512v-1792h512v-256h-512v-2048z" />
    <glyph glyph-name="Egrave" unicode="&#xc8;" 
d="M1280 3072h512v-1280h512v-256h-1024v1536zM512 3072h512v-1792h1280v-256h-1792v2048z" />
    <glyph glyph-name="Eacute" unicode="&#xc9;" 
d="M1280 0v1280h1024v-256h-512v-2048h-512v1024zM512 1792h1792v-256h-1280v-2560h-512v2816z" />
    <glyph glyph-name="Ecircumflex" unicode="&#xca;" 
d="M0 1280h2304v-256h-2304v256zM1792 3072v-1280h512v-256h-1024v1536h512zM512 3072h512v-1536h-1024v256h512v1280z" />
    <glyph glyph-name="Edieresis" unicode="&#xcb;" 
d="M0 1792h2304v-256h-2304v256zM1280 1280h1024v-256h-512v-2048h-512v2304zM0 1280h1024v-2304h-512v2048h-512v256z" />
    <glyph glyph-name="Igrave" unicode="&#xcc;" 
d="M1280 3072h512v-1280h512v-256h-1024v1536zM1280 1280h1024v-256h-512v-2048h-512v2304zM512 3072h512v-4096h-512v4096z" />
    <glyph glyph-name="Iacute" unicode="&#xcd;" 
d="M0 1280h2304v-256h-2304v256zM0 1792h2304v-256h-2304v256z" />
    <glyph glyph-name="Icircumflex" unicode="&#xce;" 
d="M0 1792h512v1280h512v-1536h-1024v256zM1280 3072h512v-1280h512v-256h-1024v1536zM2304 1280v-256h-512v-2048h-512v2304h1024zM0 1280h1024v-2304h-512v2048h-512v256z" />
    <glyph glyph-name="Idieresis" unicode="&#xcf;" 
d="M0 1280h2304v-256h-2304v256zM0 1792h768v768h512v-768h1024v-256h-2304v256z" />
    <glyph glyph-name="Eth" unicode="&#xd0;" 
d="M0 1280h512v1792h512v-1792h256v1792h512v-1792h512v-256h-2304v256z" />
    <glyph glyph-name="Ntilde" unicode="&#xd1;" 
d="M0 1792h2304v-256h-2304v256zM0 1280h2304v-256h-1024v-2048h-512v2048h-768v256z" />
    <glyph glyph-name="Ograve" unicode="&#xd2;" 
d="M1280 1024h-256v-2048h-512v2048h-512v256h2304v-256h-512v-2048h-512v2048z" />
    <glyph glyph-name="Oacute" unicode="&#xd3;" 
d="M512 3072h512v-1792h256v1792h512v-1792h512v-256h-1792v2048z" />
    <glyph glyph-name="Ocircumflex" unicode="&#xd4;" 
d="M768 3072h512v-1280h1024v-256h-1024v-256h1024v-256h-1536v2048z" />
    <glyph glyph-name="Otilde" unicode="&#xd5;" 
d="M2304 1792v-256h-1024v-256h1024v-256h-1024v-2048h-512v2816h1536z" />
    <glyph glyph-name="Odieresis" unicode="&#xd6;" 
d="M1280 1024h-256v-2048h-512v2304h1792v-256h-512v-2048h-512v2048z" />
    <glyph glyph-name="multiply" unicode="&#xd7;" 
d="M1280 1024h-256v-2048h-512v2048h-512v256h512v1792h512v-1792h256v1792h512v-1792h512v-256h-512v-2048h-512v2048z" />
    <glyph glyph-name="Oslash" unicode="&#xd8;" 
d="M0 1792h768v1280h512v-1280h1024v-256h-1024v-256h1024v-256h-1024v-2048h-512v2048h-768v256h768v256h-768v256z" />
    <glyph glyph-name="Ugrave" unicode="&#xd9;" 
d="M0 1280h768v1792h512v-2048h-1280v256z" />
    <glyph glyph-name="Uacute" unicode="&#xda;" 
d="M768 1280h1536v-256h-1024v-2048h-512v2304z" />
    <glyph glyph-name="Ucircumflex" unicode="&#xdb;" 
d="M0 3072h2304v-4096h-2304v4096z" />
    <glyph glyph-name="Udieresis" unicode="&#xdc;" 
d="M0 1280h2304v-2304h-2304v2304z" />
    <glyph glyph-name="Yacute" unicode="&#xdd;" 
d="M0 3072h1024v-4096h-1024v4096z" />
    <glyph glyph-name="Thorn" unicode="&#xde;" 
d="M1024 3072h1280v-4096h-1280v4096z" />
    <glyph glyph-name="germandbls" unicode="&#xdf;" 
d="M0 3072h2304v-1792h-2304v1792z" />
    <glyph glyph-name="agrave" unicode="&#xe0;" 
d="M768 1536h-256v-1280h256v1280zM1280 256h-256v-256h-768v256h-256v1280h256v256h768v-256h256v256h512v-256h-256v-256h-256v-768h256v-256h256v-256h-512v256z" />
    <glyph glyph-name="aacute" unicode="&#xe1;" 
d="M1024 256h256v768h-256v256h-256v256h256v768h-512v-2304h-512v2304h256v256h1024v-256h256v-768h-256v-256h256v-256h256v-768h-256v-256h-512v256z" />
    <glyph glyph-name="acircumflex" unicode="&#xe2;" 
d="M512 0h-512v2560h1792v-768h-512v512h-768v-2304z" />
    <glyph glyph-name="atilde" unicode="&#xe3;" 
d="M1024 1536h-256v-1536h-512v1536h-256v256h1792v-256h-256v-1536h-512v1536z" />
    <glyph glyph-name="adieresis" unicode="&#xe4;" 
d="M0 512h256v256h256v256h256v512h-256v256h-256v256h-256v512h1792v-512h-512v256h-768v-256h256v-256h256v-256h256v-512h-256v-256h-256v-256h-256v-256h768v256h512v-512h-1792v512z" />
    <glyph glyph-name="aring" unicode="&#xe5;" 
d="M768 1536h-256v-1280h256v1280zM0 1536h256v256h1536v-256h-512v-1280h-256v-256h-768v256h-256v1280z" />
    <glyph glyph-name="ae" unicode="&#xe6;" 
d="M0 -512h256v2304h512v-1536h512v1536h512v-1536h-256v-256h-768v-512h-256v-256h-512v256z" />
    <glyph glyph-name="ccedilla" unicode="&#xe7;" 
d="M768 1792h-256v-256h-512v256h256v256h768v-256h256v256h512v-256h-256v-256h-256v-1536h-512v1792z" />
    <glyph glyph-name="egrave" unicode="&#xe8;" 
d="M1280 1792h-512v-1024h512v1024zM256 1792h256v256h256v256h-512v256h1536v-256h-512v-256h256v-256h256v-1024h-256v-256h-256v-256h512v-256h-1536v256h512v256h-256v256h-256v1024z" />
    <glyph glyph-name="eacute" unicode="&#xe9;" 
d="M512 1536h768v512h-256v256h-256v-256h-256v-512zM512 512h256v-256h256v256h256v768h-768v-768zM512 256h-256v256h-256v1536h256v256h256v256h768v-256h256v-256h256v-1536h-256v-256h-256v-256h-768v256z" />
    <glyph glyph-name="ecircumflex" unicode="&#xea;" 
d="M1024 2304h-256v-256h-256v-768h256v-1280h-768v256h256v1024h-256v768h256v256h256v256h768v-256h256v-256h256v-768h-256v-1024h256v-256h-768v1280h256v768h-256v256z" />
    <glyph glyph-name="edieresis" unicode="&#xeb;" 
d="M1280 1280h-512v-1024h512v1024zM768 2560h1024v-256h-768v-256h256v-256h256v-256h256v-1280h-256v-256h-1024v256h-256v1024h256v256h512v256h-256v256h-256v256h256v256z" />
    <glyph glyph-name="igrave" unicode="&#xec;" 
d="M768 1536h-256v-768h256v768zM1536 1536h-256v-768h256v768zM1792 512h-1536v256h-256v768h256v256h1536v-256h512v-768h-512v-256z" />
    <glyph glyph-name="iacute" unicode="&#xed;" 
d="M768 1536h-256v-512h256v512zM1536 1536h-256v-512h-256v-256h512v768zM1792 768v-256h-1024v-256h-256v-256h-512v256h256v512h-256v768h256v256h1024v256h256v256h768v-256h-512v-512h512v-768h-512z" />
    <glyph glyph-name="icircumflex" unicode="&#xee;" 
d="M768 512h256v-256h512v-256h-768v256h-256v256h-256v1536h256v256h256v256h768v-256h-512v-256h-256v-512h768v-256h-768v-768z" />
    <glyph glyph-name="idieresis" unicode="&#xef;" 
d="M1280 2048h-768v-2048h-512v2048h256v256h1280v-256h256v-2048h-512v2048z" />
    <glyph glyph-name="eth" unicode="&#xf0;" 
d="M0 1280h1792v-256h-1792v256zM0 2048h1792v-256h-1792v256zM0 512h1792v-256h-1792v256z" />
    <glyph glyph-name="ntilde" unicode="&#xf1;" 
d="M256 256h1536v-256h-1536v256zM256 1536h512v512h512v-512h512v-256h-512v-512h-512v512h-512v256z" />
    <glyph glyph-name="ograve" unicode="&#xf2;" 
d="M256 256h1536v-256h-1536v256zM512 2304h512v-256h256v-256h256v-256h256v-256h-256v-256h-256v-256h-256v-256h-512v256h256v256h256v256h256v256h-256v256h-256v256h-256v256z" />
    <glyph glyph-name="oacute" unicode="&#xf3;" 
d="M256 256h1536v-256h-1536v256zM1024 2304h512v-256h-256v-256h-256v-256h-256v-256h256v-256h256v-256h256v-256h-512v256h-256v256h-256v256h-256v256h256v256h256v256h256v256z" />
    <glyph glyph-name="ocircumflex" unicode="&#xf4;" 
d="M1536 2304h-256v-3328h-512v3328h256v256h768v-256h256v-512h-512v512z" />
    <glyph glyph-name="otilde" unicode="&#xf5;" 
d="M0 512h512v-512h256v3072h512v-3072h-256v-256h-768v256h-256v512z" />
    <glyph glyph-name="odieresis" unicode="&#xf6;" 
d="M768 768h512v-256h-512v256zM768 1792h512v-256h-512v256zM256 1280h1536v-256h-1536v256z" />
    <glyph glyph-name="divide" unicode="&#xf7;" 
d="M1280 1792h512v-256h-256v-256h-768v256h-256v-256h-512v256h256v256h768v-256h256v256zM1280 1024h512v-256h-256v-256h-768v256h-256v-256h-512v256h256v256h768v-256h256v256z" />
    <glyph glyph-name="oslash" unicode="&#xf8;" 
d="M1024 2560h-256v-512h256v512zM512 2048h-256v512h256v256h768v-256h256v-512h-256v-256h-768v256z" />
    <glyph glyph-name="ugrave" unicode="&#xf9;" 
d="M768 1280h512v-512h-512v512z" />
    <glyph glyph-name="uacute" unicode="&#xfa;" 
d="M768 1280h512v-256h-512v256z" />
    <glyph glyph-name="ucircumflex" unicode="&#xfb;" 
d="M0 1280h768v-768h256v2304h1024v-256h-512v-2560h-768v256h-256v256h-256v512h-256v256z" />
    <glyph glyph-name="udieresis" unicode="&#xfc;" 
d="M1024 2816h512v-256h256v-1280h-512v1280h-256v256zM512 2560h-256v256h512v-256h256v-1280h-512v1280z" />
    <glyph glyph-name="yacute" unicode="&#xfd;" 
d="M256 1536h256v256h256v256h256v256h256v256h-512v-256h-512v256h256v256h1024v-256h256v-256h-256v-256h-256v-256h-256v-256h512v256h256v-512h-1536v256z" />
    <glyph glyph-name="uni25A0" unicode="&#xfe;" 
d="M256 2048h1536v-1792h-1536v1792z" />
    <glyph glyph-name="ydieresis" unicode="&#xff;" 
 />
    <glyph glyph-name="uni0001" 
d="M1280 2048h256v-256h-256v256zM512 2048h256v-256h-256v256zM512 1280h1024v-256h-256v-256h-512v256h-256v256zM0 2304h256v-2048h1536v-256h-1536v256h-256v2048zM1792 2304h-1534l-2 2v254h1536v-256h256v-2048h-256v2048z" />
  </font>
</defs>
</svg>
